Enable / Włącz Javascript
 Widok 
 Kategorie 
 Nitro Torrent w sieci 
 Top 10 użytkowników 
 Batman Gotham by Gaslight *2018* [1080p.WEB-DL.DD5.1.H264-FGT] [ENG]

Batman Gotham by Gaslight *2018* [1080p.WEB-DL.DD5.1.H264-FGT] [ENG]
Kategoria: » » »
Dodane: 24/01/2018
Rozmiar: 2.87 GB
Uploader: feldfebel1 (14)
seed(ów): 1874
leecher(ów): 217
Pobrane: 98
Komentarzy: 0
Pobierz Torrent Pobierz Torrent
Pobierz [Magnet] Pobierz [Magnet]

Obserwuj
Raportuj
Info

Tytuł: Batman: Gotham by Gaslight / Batman: Gotham w świetle lamp gazowych
Ocena: IMDB - 8.4/10 (74)
Produkcja: USA
Gatunek: Animacja, Kryminał, Przygodowy
Czas trwania: 78 min.
Premiera: 23.01.2018 - Świat
Reżyseria: Sam Liu
Scenariusz: James Krieg


Opis

Batman próbuje schwytać okrutnego seryjnego mordercę, Kubę Rozpruwacza w wiktoriańskim Gotham City.


Obsada

Jennifer Carpenter,
Bruce Greenwood,
Tara Strong,
Kari Wuhrer


Dane Techniczne

Video
ID : 1
Format : AVC
Format/Info : Advanced Video Codec
Format profile : High@L4
Format settings : CABAC / 4 Ref Frames
Format settings, CABAC : Yes
Format settings, ReFrames : 4 frames
Codec ID : V_MPEG4/ISO/AVC
Duration : 1 h 17 min
Bit rate : 4 942 kb/s
Width : 1 920 pixels
Height : 1 080 pixels
Display aspect ratio : 16:9
Frame rate mode : Constant
Frame rate : 23.976 (24000/1001) FPS
Color space : YUV
Chroma subsampling : 4:2:0
Bit depth : 8 bits
Scan type : Progressive
Bits/(Pixel*Frame) : 0.099
Stream size : 2.66 GiB (93%)
Title : Batman.Gotham.by.Gaslight.2018.1080p.WEB-DL.DD5.1.H264-FGT
Language : English
Default : Yes
Forced : No
Color range : Limited
Color primaries : BT.709
Transfer characteristics : BT.709
Matrix coefficients : BT.709

Audio
ID : 2
Format : AC-3
Format/Info : Audio Coding 3
Codec ID : A_AC3
Duration : 1 h 17 min
Bit rate mode : Constant
Bit rate : 384 kb/s
Channel(s) : 6 channels
Channel positions : Front: L C R, Side: L R, LFE
Sampling rate : 48.0 kHz
Frame rate : 31.250 FPS (1536 SPF)
Bit depth : 16 bits
Compression mode : Lossy
Stream size : 212 MiB (7%)
Title : Batman.Gotham.by.Gaslight.2018.1080p.WEB-DL.DD5.1.H264-FGT
Language : English
Service kind : Complete Main
Default : Yes
Forced : No

Text
ID : 3
Format : UTF-8
Codec ID : S_TEXT/UTF8
Codec ID/Info : UTF-8 Plain Text
Duration : 1 h 12 min
Bit rate : 56 b/s
Count of elements : 920
Stream size : 30.1 KiB (0%)
Language : English
Default : Yes
Forced : No
Dostępne napisy
Brak napisów
Szczegóły torrenta
Tracker http://tracker.trackerfix.com:80/announce
Multitracker [ Pokaż ]
Kategoria: » » » [Zgłoś błąd]
Dodane 24-01-2018
Podziękowali:
0 użytkowników 
Podziękuj!
Pokaż / Ukryj pliki:
Nazwa pliku Rozmiar
Batman.Gotham.by.Gaslight.2018.1080p.WEB-DL.DD5.1.H264-FGT.mkv 2.87 GB
English.srt 65.95 KB
RARBG.txt 0.03 KB
3 plików
Brak komentarzy...