Enable / Włącz Javascript
 Widok 
 Kategorie 
 Nitro Torrent w sieci 
 Top 10 użytkowników 
 Better Call Saul S04E01 - Smoke [720p.NF.WEB-DL.H.264.DD5.1] [Napisy PL]

Better Call Saul S04E01 - Smoke [720p.NF.WEB-DL.H.264.DD5.1] [Napisy PL]
Kategoria: » » » »
Dodane: 07/08/2018
Rozmiar: 1.13 GB
Uploader: Lukarusi (1)
seed(ów): 18
leecher(ów): 2
Pobrane: 64
Komentarzy: 0
Pobierz Torrent Pobierz Torrent
Pobierz [Magnet] Pobierz [Magnet]

Obserwuj
Raportuj
Info

produkcja: USA
gatunek: Kryminał, Dramat, Komedia
reżyseria: Vince Gilligan, Adam Bernstein, Michelle MacLaren
scenariusz: Vince Gilligan, Peter Gould
muzyka: Dave Porter
czas trwania: ok. 48 min.

Opis

Akcja "Better Call Saul", prequela "Breaking Bad", rozpoczyna się 6 lat przed tym, jak Saul Goodman poznał Waltera White'a. Głównego bohatera poznajemy jako Jimmy'ego McGilla, początkującego prawnika szukającego przeznaczenia i celu w życiu. Serial przedstawia transformację Jimmy'ego w Saula Goodmana ? osobę, która w przyszłości pomaga White'owi.

Obsada

Bob Odenkirk - Jimmy McGill/Saul Goodman
Jonathan Banks - Mike Ehrmantraut
Rhea Seehorn - Kim Wexler
Patrick Fabian - Howard Hamlin
Michael Mando - Nacho Varga
Michael McKean - Chuck McGill

Dane Techniczne

Format : Matroska
Format version : Version 4 / Version 2
File size : 1.13 GiB
Duration : 48 min 32 s
Overall bit rate : 3 337 kb/s
Encoded date : UTC 2018-08-07 13:51:48

Video
ID : 1
Format : AVC
Format/Info : Advanced Video Codec
Format profile : Main@L3.1
Format settings : CABAC / 3 Ref Frames
Format settings, CABAC : Yes
Format settings, ReFrames : 3 frames
Codec ID : V_MPEG4/ISO/AVC
Duration : 48 min 32 s
Bit rate : 2 951 kb/s
Width : 1 280 pixels
Height : 720 pixels
Display aspect ratio : 16:9
Frame rate mode : Constant
Frame rate : 23.976 (24000/1001) FPS
Color space : YUV
Chroma subsampling : 4:2:0
Bit depth : 8 bits
Scan type : Progressive
Bits/(Pixel*Frame) : 0.134
Stream size : 1.00 GiB (88%)
Default : Yes
Forced : Yes

Audio
ID : 2
Format : AC-3
Format/Info : Audio Coding 3
Codec ID : A_AC3
Duration : 48 min 32 s
Bit rate mode : Constant
Bit rate : 384 kb/s
Channel(s) : 6 channels
Channel positions : Front: L C R, Side: L R, LFE
Sampling rate : 48.0 kHz
Frame rate : 31.250 FPS (1536 SPF)
Bit depth : 16 bits
Compression mode : Lossy
Stream size : 133 MiB (12%)
Language : English
Service kind : Complete Main
Default : Yes
Forced : Yes

Text
ID : 3
Format : UTF-8
Codec ID : S_TEXT/UTF8
Codec ID/Info : UTF-8 Plain Text
Duration : 46 min 31 s
Bit rate : 31 b/s
Count of elements : 391
Stream size : 10.6 KiB (0%)
Language : Polish
Default : Yes
Forced : Yes
Dostępne napisy
Brak napisów
Szczegóły torrenta
Tracker http://tracker.vanitycore.co:6969/announce
Multitracker [ Pokaż ]
Kategoria: » » » » [Zgłoś błąd]
Dodane 07-08-2018
Podziękowali:
0 użytkowników 
Podziękuj!
Pokaż / Ukryj pliki:
Nazwa pliku Rozmiar
Better Call Saul - Smoke [720p.NF.WEB-DL.H.264.DD5.1] [Napisy PL].mkv 1.13 GB
Better Call Saul - Smoke [720p.NF.WEB-DL.H.264.DD5.1] [Napisy PL].srt 25.78 KB
2 plików
Brak komentarzy...