Enable / Włącz Javascript
 Widok 
 Kategorie 
 Nitro Torrent w sieci 
 Top 10 użytkowników 
 Doctor.Strange.2016.[4K.HDR.10bit.BT2020.DTS.HD] [ENG]

Doctor.Strange.2016.[4K.HDR.10bit.BT2020.DTS.HD] [ENG]
Kategoria: » » »
Dodane: 03/10/2017
Rozmiar: 47.30 GB
Uploader: tomysparow559 (10)
seed(ów): 0
leecher(ów): 0
Pobrane: 34
Komentarzy: 0
Pobierz Torrent Pobierz Torrent
Pobierz [Magnet] Pobierz [Magnet]

Obserwuj
Raportuj
Produkcja: USA
Gatunek: Fantasy, Przygodowy
Premiera: 26 października 2016 (Polska), 13 października 2016 (świat)
Reżyseria: Scott Derrickson
Scenariusz: Jon Spaihts, C. Robert Cargill, Scott Derrickson



"Doctor Strange" jest filmową adaptacją popularnego komiksu, stworzonego przez Stana Lee i Steve?a Ditko. Głównym bohaterem jest znany chirurg, Stephen Strange, który ulega wypadkowi samochodowemu. Nerwy w jego rękach zostają uszkodzone, co uniemożliwia mu dalszą pracę. Odnajduje jednak nowe życie podczas szkolenia na najwyższego czarnoksiężnika Ziemi...



? Benedict Cumberbatch .... Dr Stephen Strange
? Chiwetel Ejiofor .... Mordo
? Rachel McAdams .... Christine Palmer
? Benedict Wong .... Wong
? Mads Mikkelsen .... Kaecilius
? Tilda Swinton .... Starożytna
? Michael Stuhlbarg .... Dr Nicodemus West
? Benjamin Bratt .... Jonathan Pangborn



Format : HEVC
Format/Info : High Efficiency Video Coding
Codec ID : V_MPEGH/ISO/HEVC
Duration : 1 h 54 min
Bit rate : 50.3 Mb/s
Width : 3 840 pixels
Height : 1 608 pixels
Display aspect ratio : 2.40:1
Frame rate mode : Constant
Frame rate : 23.976 (24000/1001) FPS
Bits/(Pixel*Frame) : 0.340
Stream size : 40.4 GiB (86%)
Title : TEKNO3D Doctor.Strange.2016.4K.HDR-VISIONPLUSHDR1000
Language : English
Default : Yes
Forced : No

Audio #1
ID : 2
Format : DTS
Format/Info : Digital Theater Systems
Format profile : MA / Core
Mode : 16
Format settings, Endianness : Big
Codec ID : A_DTS
Duration : 1 h 54 min
Bit rate mode : Variable / Constant
Bit rate : 5 130 kb/s / 1 509 kb/s
Channel(s) : 8 channels / 6 channels
Channel positions : Front: L C R, Side: L R, Back: L R, LFE / Front: L C R, Side: L R, LFE
Sampling rate : 48.0 kHz
Frame rate : 93.750 FPS (512 spf)
Bit depth : 24 bits
Compression mode : Lossless / Lossy
Stream size : 4.12 GiB (9%)
Title : TEKNO3D Doctor.Strange.2016.4K.HDR-VISIONPLUSHDR1000
Language : English
Default : Yes
Forced : No

Audio #2
ID : 3
Format : DTS
Format/Info : Digital Theater Systems
Mode : 16
Format settings, Endianness : Big
Codec ID : A_DTS
Duration : 1 h 54 min
Bit rate mode : Constant
Bit rate : 1 509 kb/s
Channel(s) : 6 channels
Channel positions : Front: L C R, Side: L R, LFE
Sampling rate : 48.0 kHz
Frame rate : 93.750 FPS (512 spf)
Bit depth : 24 bits
Compression mode : Lossy
Stream size : 1.21 GiB (3%)
Title : TEKNO3D Doctor.Strange.2016.4K.HDR-VISIONPLUSHDR1000
Language : English
Default : No
Forced : No

Audio #3
ID : 4
Format : AC-3
Format/Info : Audio Coding 3
Format settings, Endianness : Big
Codec ID : A_AC3
Duration : 1 h 54 min
Bit rate mode : Constant
Bit rate : 320 kb/s
Channel(s) : 2 channels
Channel positions : Front: L R
Sampling rate : 48.0 kHz
Frame rate : 31.250 FPS (1536 spf)
Bit depth : 16 bits
Compression mode : Lossy
Stream size : 263 MiB (1%)
Title : TEKNO3D Doctor.Strange.2016.4K.HDR-VISIONPLUSHDR1000
Language : English
Service kind : Complete Main
Default : No
Forced : No

Audio #4
ID : 5
Format : AC-3
Format/Info : Audio Coding 3
Format settings, Endianness : Big
Codec ID : A_AC3
Duration : 1 h 54 min
Bit rate mode : Constant
Bit rate : 640 kb/s
Channel(s) : 6 channels
Channel positions : Front: L C R, Side: L R, LFE
Sampling rate : 48.0 kHz
Frame rate : 31.250 FPS (1536 spf)
Bit depth : 16 bits
Compression mode : Lossy
Stream size : 526 MiB (1%)
Title : TEKNO3D Doctor.Strange.2016.4K.HDR-VISIONPLUSHDR1000
Language : French
Service kind : Complete Main
Default : No
Forced : No

Audio #5
ID : 6
Format : AC-3
Format/Info : Audio Coding 3
Format settings, Endianness : Big
Codec ID : A_AC3
Duration : 1 h 54 min
Bit rate mode : Constant
Bit rate : 640 kb/s
Channel(s) : 6 channels
Channel positions : Front: L C R, Side: L R, LFE
Sampling rate : 48.0 kHz
Frame rate : 31.250 FPS (1536 spf)
Bit depth : 16 bits
Compression mode : Lossy
Stream size : 526 MiB (1%)
Title : TEKNO3D Doctor.Strange.2016.4K.HDR-VISIONPLUSHDR1000
Language : Spanish
Service kind : Complete Main
Default : No
Forced : No

Audio #6
ID : 7
Format : AC-3
Format/Info : Audio Coding 3
Format settings, Endianness : Big
Codec ID : A_AC3
Duration : 1 h 54 min
Bit rate mode : Constant
Bit rate : 192 kb/s
Channel(s) : 2 channels
Channel positions : Front: L R
Sampling rate : 48.0 kHz
Frame rate : 31.250 FPS (1536 spf)
Bit depth : 16 bits
Compression mode : Lossy
Stream size : 158 MiB (0%)
Title : TEKNO3D Doctor.Strange.2016.4K.HDR-VISIONPLUSHDR1000
Language : English
Service kind : Complete Main
Default : No
Forced : No


SUBTITLES: English, French, Spanish.


Pobrałeś/aś? Podziękuj! To nic nie kosztuje a Motywuje!!!

Dostępne napisy
Brak napisów
Szczegóły torrenta
Tracker udp://tracker.ilibr.org:80/announce
Multitracker [ Pokaż ]
Kategoria: » » » [Zgłoś błąd]
Dodane 03-10-2017
Podziękowali:
0 użytkowników 
Podziękuj!
Pokaż / Ukryj pliki:
Nazwa pliku Rozmiar
Images/All images using 375 nits Gamma 1.90 Saturation Default.txt 0.20 KB
HOW.TO.PLAYBACK.README.DOWNLOADED.FROM.TEKNO3D.COM.txt 4.90 KB
doctorstrange4kvisionplushdr1000.jpg 278.60 KB
Images/Image2.png 4.91 MB
Images/Image3.png 5.25 MB
Images/Image09.png 5.27 MB
Images/image11.png 5.60 MB
Images/Image4.png 5.71 MB
Images/image10.png 5.84 MB
Images/Image6.png 6.28 MB
Images/Image5.png 6.45 MB
Images/Image7.png 7.08 MB
Images/Image08.png 7.21 MB
Images/Image1.png 7.64 MB
Doctor.Strange.2016.4K.HDR.10bit.BT2020.DTS.HD.MA-VISIONPLUSHDR1000.mp4 47.23 GB
15 plików
Brak komentarzy...