Enable / Włącz Javascript
 Widok 
 Kategorie 
 Nitro Torrent w sieci 
 Top 10 użytkowników 
 Egzorcysta S03E12-13 [1080p.WEB-DL.H.264.AC3] [PL]

Egzorcysta S03E12-13 [1080p.WEB-DL.H.264.AC3] [PL]
Kategoria: » » » »
Dodane: 25/01/2019
Rozmiar: 1.07 GB
Uploader: Lukarusi (1)
seed(ów): 51
leecher(ów): 28
Pobrane: 149
Komentarzy: 0
Pobierz Torrent Pobierz Torrent
Pobierz [Magnet] Pobierz [Magnet]

Obserwuj
Raportuj
Info

produkcja: PL
gatunek: Komedia, Animacja
twórca: Bartosz Walaszek
czas trwania: ok. 10 min.

Opis

Egzorcysta to człowiek do którego dzwoni się w ostateczności. Na co dzień zajmuje się pracami budowlano-remontowymi. Ale w ramach powołania ? walczy z demonami, wampirami, duchami i tym podobnym cholerstwem.

Dane Techniczne

Format : Matroska
Format version : Version 4 / Version 2
File size : 575 MiB
Duration : 10 min 30 s
Overall bit rate mode : Variable
Overall bit rate : 7 642 kb/s
Encoded date : UTC 2019-01-16 08:08:59

Video
ID : 1
Format : AVC
Format/Info : Advanced Video Codec
Format profile : High@L4
Format settings : CABAC / 4 Ref Frames
Format settings, CABAC : Yes
Format settings, ReFrames : 4 frames
Codec ID : V_MPEG4/ISO/AVC
Duration : 10 min 30 s
Bit rate mode : Variable
Bit rate : 7 256 kb/s
Maximum bit rate : 12.0 Mb/s
Width : 1 920 pixels
Height : 860 pixels
Display aspect ratio : 2.25:1
Frame rate mode : Constant
Frame rate : 29.970 (30000/1001) FPS
Color space : YUV
Chroma subsampling : 4:2:0
Bit depth : 8 bits
Scan type : Progressive
Bits/(Pixel*Frame) : 0.147
Stream size : 546 MiB (95%)
Default : Yes
Forced : Yes
Color range : Limited
Color primaries : BT.709
Transfer characteristics : BT.709
Matrix coefficients : BT.709

Audio
ID : 2
Format : AC-3
Format/Info : Audio Coding 3
Commercial name : Dolby Digital
Codec ID : A_AC3
Duration : 10 min 30 s
Bit rate mode : Constant
Bit rate : 384 kb/s
Channel(s) : 2 channels
Channel layout : L R
Sampling rate : 48.0 kHz
Frame rate : 31.250 FPS (1536 SPF)
Bit depth : 16 bits
Compression mode : Lossy
Stream size : 28.9 MiB (5%)
Language : Polish
Service kind : Complete Main
Default : Yes
Forced : Yes
Dostępne napisy
Brak napisów
Szczegóły torrenta
Tracker http://tracker.city9x.com:2710/announce
Multitracker [ Pokaż ]
Kategoria: » » » » [Zgłoś błąd]
Dodane 25-01-2019
Podziękowali:
1 użytkownik 
[ Pokaż ]
Podziękuj!
Pokaż / Ukryj pliki:
Nazwa pliku Rozmiar
Egzorcysta S03E12 - ZUS [1080p.WEB-DL.H.264.AC3] [PL].mkv 574.76 MB
Egzorcysta S03E13 - Wóda święcona [1080p.WEB-DL.H.264.AC3] [PL].mkv 521.73 MB
2 plików
Brak komentarzy...