Enable / Włącz Javascript
 Widok 
 Kategorie 
 Nitro Torrent w sieci 
 Top 10 użytkowników 
 Ekstradycja 1 [1080p.WEB-DL.H.264.AC3] [PL]

Ekstradycja 1 [1080p.WEB-DL.H.264.AC3] [PL] wielopaczka
Kategoria: » » » »
Dodane: 31/01/2019
Rozmiar: 14.24 GB
Uploader: Lukarusi (1)
seed(ów): 0
leecher(ów): 0
Pobrane: 175
Komentarzy: 0
Pobierz Torrent Pobierz Torrent
Pobierz [Magnet] Pobierz [Magnet]

Obserwuj
Raportuj
Info

produkcja: Polska
gatunek: Kryminał, Akcja
scenariusz: Paweł Trzaska, Robert Brutter, Witold Horwath
reżyseria: Wojciech Wójcik
zdjęcia: Piotr Wojtowicz
muzyka: Jerzy Satanowski
czas trwania: ok. 52-54 min.

Opis

Jeden z najważniejszych seriali sensacyjnych powstałych w latach transformacji. Świetnie, wiarygodnie ukazujący realia lat '90 i pracę policjantów w nowej rzeczywistości, w której pojawiają się zupełnie nowe grupy przestępcze - handlarze narkotyków i zwalczające się nawzajem gangi.

Obsada

Marek Kondrat - Olgierd Halski
Witold Dębicki - Stefan Sawka, przełożony Halskiego
Małgorzata Pieczyńska - Sabina Borkowska, siostra Halskiego
Renata Dancewicz - Beata
Alosza Awdiejew - Zajcew, rezydent mafii rosyjskiej w Polsce
Artur Żmijewski - Wiesiek Cyrk
Krzysztof Kolberger - Jerzy Szawłowski, szef UOP
Zdzisław Wardejn - Peter Novotny, prezes banku
Aleksandra Rosińska - Basia, córka Halskiego
Tomasz Kozłowicz - Kamil Zybertowicz, funkcjonariusz UOP, partner Halskiego

Dane Techniczne

Format : Matroska
Format version : Version 4 / Version 2
File size : 2.41 GiB
Duration : 54 min 24 s
Overall bit rate mode : Variable
Overall bit rate : 6 331 kb/s
Encoded date : UTC 2019-01-20 15:33:17

Video
ID : 1
Format : AVC
Format/Info : Advanced Video Codec
Format profile : High@L4
Format settings : CABAC / 4 Ref Frames
Format settings, CABAC : Yes
Format settings, ReFrames : 4 frames
Codec ID : V_MPEG4/ISO/AVC
Duration : 54 min 24 s
Bit rate mode : Variable
Bit rate : 5 945 kb/s
Maximum bit rate : 9 000 kb/s
Width : 1 920 pixels
Height : 1 080 pixels
Display aspect ratio : 16:9
Frame rate mode : Constant
Frame rate : 25.000 FPS
Color space : YUV
Chroma subsampling : 4:2:0
Bit depth : 8 bits
Scan type : Progressive
Bits/(Pixel*Frame) : 0.115
Stream size : 2.26 GiB (94%)
Default : Yes
Forced : Yes
Color range : Limited
Color primaries : BT.709
Transfer characteristics : BT.709
Matrix coefficients : BT.709

Audio
ID : 2
Format : AC-3
Format/Info : Audio Coding 3
Commercial name : Dolby Digital
Codec ID : A_AC3
Duration : 54 min 23 s
Bit rate mode : Constant
Bit rate : 384 kb/s
Channel(s) : 2 channels
Channel layout : L R
Sampling rate : 48.0 kHz
Frame rate : 31.250 FPS (1536 SPF)
Bit depth : 16 bits
Compression mode : Lossy
Stream size : 149 MiB (6%)
Language : Polish
Service kind : Complete Main
Default : Yes
Forced : Yes
Dostępne napisy
Brak napisów
Szczegóły torrenta
Tracker http://tracker.city9x.com:2710/announce
Multitracker [ Pokaż ]
Kategoria: » » » » [Zgłoś błąd]
Dodane 31-01-2019
Podziękowali:
2 użytkowników 
[ Pokaż ]
Podziękuj!
Pokaż / Ukryj pliki:
Nazwa pliku Rozmiar
Ekstradycja odc. 1 [1080p.WEB-DL.H.264.AC3] [PL].mkv 2.41 GB
Ekstradycja odc. 2 [1080p.WEB-DL.H.264.AC3] [PL].mkv 2.37 GB
Ekstradycja odc. 3 [1080p.WEB-DL.H.264.AC3] [PL].mkv 2.34 GB
Ekstradycja odc. 4 [1080p.WEB-DL.H.264.AC3] [PL].mkv 2.40 GB
Ekstradycja odc. 5 [1080p.WEB-DL.H.264.AC3] [PL].mkv 2.34 GB
Ekstradycja odc. 6 [1080p.WEB-DL.H.264.AC3] [PL].mkv 2.38 GB
6 plików
Brak komentarzy...