Enable / Włącz Javascript
 Widok 
 Kategorie 
 Nitro Torrent w sieci 
 Top 10 użytkowników 
 Ekstradycja 2 [1080p.WEB-DL.H.264.AC3] [PL]

Ekstradycja 2 [1080p.WEB-DL.H.264.AC3] [PL] wielopaczka
Kategoria: » » » »
Dodane: 31/01/2019
Rozmiar: 21.35 GB
Uploader: Lukarusi (1)
seed(ów): 0
leecher(ów): 0
Pobrane: 188
Komentarzy: 7
Pobierz Torrent Pobierz Torrent
Pobierz [Magnet] Pobierz [Magnet]

Obserwuj
Raportuj
Info

produkcja: Polska
gatunek: Kryminał, Akcja
scenariusz: Robert Brutter, Witold Horwath
reżyseria: Wojciech Wójcik
zdjęcia: Piotr Wojtowicz
muzyka: Jerzy Satanowski
czas trwania: ok. 52-55 min.

Opis

Komisarz Olgierd Halski musi zmierzyć się z rozwijającą narkotykowy biznes Nadieżdą Tumską i jej psychopatycznym kochankiem Jurijem.

Obsada

Marek Kondrat - Olgierd Halski
Maria Pakulnis - Nadieżda Tumska
Paweł Wilczak - Jurij, kochanek Nadieżdy Tumskiej
Witold Dębicki - Stefan Sawka, przełożony Halskiego
Małgorzata Pieczyńska - Sabina Borkowska, siostra Halskiego
Renata Dancewicz - Beata
Aleksandra Rosińska - Basia, córka Halskiego
Jerzy Trela - Gundis, szef mafii łotewskiej
Karol Strasburger - Sasza Piłatow, rosyjski kapitan Interpolu
Henryk Bista - Henio Dobracki, informatyk
Piotr Fronczewski - wiceprezes ?Geobanku?

Dane Techniczne

Format : Matroska
Format version : Version 4 / Version 2
File size : 2.31 GiB
Duration : 52 min 24 s
Overall bit rate mode : Variable
Overall bit rate : 6 308 kb/s
Encoded date : UTC 2019-01-20 15:58:02

Video
ID : 1
Format : AVC
Format/Info : Advanced Video Codec
Format profile : High@L4
Format settings : CABAC / 4 Ref Frames
Format settings, CABAC : Yes
Format settings, ReFrames : 4 frames
Codec ID : V_MPEG4/ISO/AVC
Duration : 52 min 24 s
Bit rate mode : Variable
Bit rate : 5 922 kb/s
Maximum bit rate : 9 000 kb/s
Width : 1 920 pixels
Height : 1 080 pixels
Display aspect ratio : 16:9
Frame rate mode : Constant
Frame rate : 25.000 FPS
Color space : YUV
Chroma subsampling : 4:2:0
Bit depth : 8 bits
Scan type : Progressive
Bits/(Pixel*Frame) : 0.114
Stream size : 2.17 GiB (94%)
Default : Yes
Forced : Yes
Color range : Limited
Color primaries : BT.709
Transfer characteristics : BT.709
Matrix coefficients : BT.709

Audio
ID : 2
Format : AC-3
Format/Info : Audio Coding 3
Commercial name : Dolby Digital
Codec ID : A_AC3
Duration : 52 min 24 s
Bit rate mode : Constant
Bit rate : 384 kb/s
Channel(s) : 2 channels
Channel layout : L R
Sampling rate : 48.0 kHz
Frame rate : 31.250 FPS (1536 SPF)
Bit depth : 16 bits
Compression mode : Lossy
Stream size : 144 MiB (6%)
Language : Polish
Service kind : Complete Main
Default : Yes
Forced : Yes
Dostępne napisy
Brak napisów
Szczegóły torrenta
Tracker http://tracker.city9x.com:2710/announce
Multitracker [ Pokaż ]
Kategoria: » » » » [Zgłoś błąd]
Dodane 31-01-2019
Podziękowali:
5 użytkowników 
[ Pokaż ]
Podziękuj!
Pokaż / Ukryj pliki:
Nazwa pliku Rozmiar
Ekstradycja 2 odc. 1 [1080p.WEB-DL.H.264.AC3] [PL].mkv 2.31 GB
Ekstradycja 2 odc. 2 [1080p.WEB-DL.H.264.AC3] [PL].mkv 2.36 GB
Ekstradycja 2 odc. 3 [1080p.WEB-DL.H.264.AC3] [PL].mkv 2.31 GB
Ekstradycja 2 odc. 4 [1080p.WEB-DL.H.264.AC3] [PL].mkv 2.30 GB
Ekstradycja 2 odc. 5 [1080p.WEB-DL.H.264.AC3] [PL].mkv 2.36 GB
Ekstradycja 2 odc. 6 [1080p.WEB-DL.H.264.AC3] [PL].mkv 2.38 GB
Ekstradycja 2 odc. 7 [1080p.WEB-DL.H.264.AC3] [PL].mkv 2.44 GB
Ekstradycja 2 odc. 8 [1080p.WEB-DL.H.264.AC3] [PL].mkv 2.43 GB
Ekstradycja 2 odc. 9 [1080p.WEB-DL.H.264.AC3] [PL].mkv 2.46 GB
9 plików

<< Poprz.      Następna >>
1 - 7



Lukarusi (1)
@sliwer3: Odcinek 3 jest uszkodzony i dlatego brakuje te 1,1%. Tu wstawiłem osobno jako REPACK ten odcinek: http://go4linx.net/torrent/788305.html
Pozdrawiam.
08/02/2019 07:24:26 # 0 0


sliwer3 (1)
też mam 1,1% niedokończone
07/02/2019 10:02:33 # 0 0


sliwer3 (1)
kopsnijcie seda
07/02/2019 10:00:26 # 0 0


Shaker82 (1)
Dzięki za wstawkę. Pojawi się seed, żeby dokończyć te 1,1 % ?? Jeszcze raz dzięki.
02/02/2019 16:38:13 # 0 0


yafi (1)
Czy sezon 3 tez sie pojawi w podobnym formacie?
02/02/2019 09:43:34 # 0 0


dareczek48 (3)
Jakość extra miło się ogląda
01/02/2019 21:29:10 # 0 0


macek1964 (1)
REWELACJA! UWIELBIAM TEN SERIAL. CZEKAŁEM DŁUGO NA TAKĄ JAKOŚĆ.
31/01/2019 18:06:19 # 0 0

1 - 7
<< Poprz.      Następna >>