Enable / Włącz Javascript
 Widok 
 Kategorie 
 Nitro Torrent w sieci 
 Top 10 użytkowników 
 Ekstradycja 2 odc. 3 [REPACK] [1080p.WEB-DL.H.264.AC3] [PL]

Ekstradycja 2 odc. 3 [REPACK] [1080p.WEB-DL.H.264.AC3] [PL]
Kategoria: » » » »
Dodane: 31/01/2019
Rozmiar: 2.31 GB
Uploader: Lukarusi (1)
seed(ów): 0
leecher(ów): 0
Pobrane: 97
Komentarzy: 1
Pobierz Torrent Pobierz Torrent
Pobierz [Magnet] Pobierz [Magnet]

Obserwuj
Raportuj
Info

produkcja: Polska
gatunek: Kryminał, Akcja
scenariusz: Robert Brutter, Witold Horwath
reżyseria: Wojciech Wójcik
zdjęcia: Piotr Wojtowicz
muzyka: Jerzy Satanowski
czas trwania: ok. 52 min.

Opis

Komisarz Olgierd Halski musi zmierzyć się z rozwijającą narkotykowy biznes Nadieżdą Tumską i jej psychopatycznym kochankiem Jurijem.

Obsada

Marek Kondrat - Olgierd Halski
Maria Pakulnis - Nadieżda Tumska
Paweł Wilczak - Jurij, kochanek Nadieżdy Tumskiej
Witold Dębicki - Stefan Sawka, przełożony Halskiego
Małgorzata Pieczyńska - Sabina Borkowska, siostra Halskiego
Renata Dancewicz - Beata
Aleksandra Rosińska - Basia, córka Halskiego
Jerzy Trela - Gundis, szef mafii łotewskiej
Karol Strasburger - Sasza Piłatow, rosyjski kapitan Interpolu
Henryk Bista - Henio Dobracki, informatyk
Piotr Fronczewski - wiceprezes ?Geobanku?

Dane Techniczne

Format : Matroska
Format version : Version 4 / Version 2
File size : 2.31 GiB
Duration : 52 min 3 s
Overall bit rate mode : Variable
Overall bit rate : 6 346 kb/s
Encoded date : UTC 2019-01-31 21:39:37

Video
ID : 1
Format : AVC
Format/Info : Advanced Video Codec
Format profile : High@L4
Format settings : CABAC / 4 Ref Frames
Format settings, CABAC : Yes
Format settings, ReFrames : 4 frames
Codec ID : V_MPEG4/ISO/AVC
Duration : 52 min 3 s
Bit rate mode : Variable
Bit rate : 5 960 kb/s
Maximum bit rate : 9 000 kb/s
Width : 1 920 pixels
Height : 1 080 pixels
Display aspect ratio : 16:9
Frame rate mode : Constant
Frame rate : 25.000 FPS
Color space : YUV
Chroma subsampling : 4:2:0
Bit depth : 8 bits
Scan type : Progressive
Bits/(Pixel*Frame) : 0.115
Stream size : 2.17 GiB (94%)
Default : Yes
Forced : Yes
Color range : Limited
Color primaries : BT.709
Transfer characteristics : BT.709
Matrix coefficients : BT.709

Audio
ID : 2
Format : AC-3
Format/Info : Audio Coding 3
Commercial name : Dolby Digital
Codec ID : A_AC3
Duration : 52 min 3 s
Bit rate mode : Constant
Bit rate : 384 kb/s
Channel(s) : 2 channels
Channel layout : L R
Sampling rate : 48.0 kHz
Frame rate : 31.250 FPS (1536 SPF)
Bit depth : 16 bits
Compression mode : Lossy
Stream size : 143 MiB (6%)
Language : Polish
Service kind : Complete Main
Default : Yes
Forced : Yes
Dostępne napisy
Brak napisów
Szczegóły torrenta
Tracker http://tracker.city9x.com:2710/announce
Multitracker [ Pokaż ]
Kategoria: » » » » [Zgłoś błąd]
Dodane 31-01-2019
Podziękowali:
2 użytkowników 
[ Pokaż ]
Podziękuj!
Pokaż / Ukryj pliki:
Nazwa pliku Rozmiar
Ekstradycja 2 odc. 3 [REPACK] [1080p.WEB-DL.H.264.AC3] [PL].mkv 2.31 GB
1 plik

<< Poprz.      Następna >>
1 - 1



dareczek48 (3)
ekstradycja 3 będzie??
04/02/2019 15:06:37 # 0 0

1 - 1
<< Poprz.      Następna >>