Enable / Włącz Javascript
 Widok 
 Kategorie 
 Nitro Torrent w sieci 
 Top 10 użytkowników 
 Kimi No Na Wa *2016* [1080p.BRRip.x264][JAP]

Kimi No Na Wa *2016* [1080p.BRRip.x264][JAP]
Kategoria: » » »
Dodane: 12/10/2017
Rozmiar: 2.50 GB
Uploader: SharinGun (5)
seed(ów): 0
leecher(ów): 0
Pobrane: 29
Komentarzy: 0
Pobierz Torrent Pobierz Torrent
Pobierz [Magnet] Pobierz [Magnet]

Obserwuj
Raportuj
Info
Produkcja: Japonia
Premiera: 3 lipca 2016
Gatunek: Dramat filmowy/Film fantasy
Czas trwania: 1h.52min.
Reżyseria:  Makoto Shinkai
Scenariusz:  Makoto Shinkai

[Pl]- Twoje Imię
[Eng]- Your Name
[Jap]- Kimi No Na Wa


[Napisy PL do pobrania obok]

Opis
Kimi no na wa. (jap. ??????) ? japoński film animowany z 2016 roku, z gatunku fantasy, którego reżyserem i scenarzystą jest Makoto Shinkai. Produkcją filmu zajęło się studio CoMix Wave Films, natomiast dystrybutorem jest T?h?. Reżyserem animacji został Masashi And?, a projekt postaci wykonał Masayoshi Tanaka[2]. Film opowiada historię dwójki licealistów mieszkających w różnych częściach Japonii, którzy zamieniają się ciałami.
Produkcja jest ekranizacją powieści pod tym samym tytułem, napisanej przez Shinkaia, a która została oficjalnie wydana 18 czerwca 2016, krótko przed premierą filmu[2][3].

Historia rozgrywa się wokół dwójki głównych bohaterów. Pierwszą z nich jest Mitsuha ? uczennica liceum, spędzająca swoje życie w niezbyt dużej wiosce wraz z młodszą siostrą i babcią. Dziewczyna jest bardzo uczciwa i rzetelna, jednak nie znosi zwyczajów swojej rodziny, nie wspominając o ojcu, który jest politykiem i przez zbliżające się wybory praktycznie nie widuje się ze swoimi córkami. Największym marzeniem Mitsuhy jest skosztowanie życia w Tokio. Drugim z bohaterów jest Taki, licealista żyjący w samym centrum stolicy, zafascynowany architekturą i sztukami pięknymi. W wolnym czasie spotyka się ze znajomymi i pracuje w włoskiej restauracji. Pewnego dnia Mitsuha ma sen o byciu młodym chłopakiem. Taki również ma sen o byciu dziewczyną w małej wiosce w górach, w której nigdy nie był. Jaki jest sekret ich snów i doświadczeń?

Dane Techniczne
General
Unique ID                      : 237128374295581489079989276457403514935 (0xB265438001A2B7F0A66E26A078AD8037)
Complete name                  : X:\Kimi no na wa\Kimi.No.Na.Wa.2016.JAPANESE.BluRay.1080p.x264.AAC.5.1.-.Hon3y\www.HDSector.com - Kimi.No.Na.Wa.2016.JAPANESE.BluRay.1080p.x264.AAC.5.1.-.Hon3y.mkv
Format                         : Matroska
Format version                 : Version 4 / Version 2
File size                      : 2.50 GiB
Duration                       : 1 h 46 min
Overall bit rate               : 3 362 kb/s
Movie name                     : Kimi.No.Na.Wa.2016-Hon3y
Encoded date                   : UTC 2017-07-27 09:07:40
Writing application            : mkvmerge v9.4.2 ('So High') 64bit
Writing library                : libebml v1.3.4 + libmatroska v1.4.5
Cover                          : Yes
Attachments                    : cover_land.jpg / small_cover.jpg / small_cover_land.jpg / cover.jpg

Video
ID                             : 1
Format                         : AVC
Format/Info                    : Advanced Video Codec
Format profile                 : High@L4.1
Format settings, CABAC         : Yes
Format settings, ReFrames      : 4 frames
Codec ID                       : V_MPEG4/ISO/AVC
Duration                       : 1 h 46 min
Bit rate                       : 3 000 kb/s
Width                          : 1 920 pixels
Height                         : 1 080 pixels
Display aspect ratio           : 16:9
Frame rate mode                : Constant
Frame rate                     : 23.976 FPS
Color space                    : YUV
Chroma subsampling             : 4:2:0
Bit depth                      : 8 bits
Scan type                      : Progressive
Bits/(Pixel*Frame)             : 0.060
Stream size                    : 2.23 GiB (89%)
Writing library                : x264 core 148 r2744 b97ae06
Encoding settings              : cabac=1 / ref=4 / deblock=1:-1:-1 / analyse=0x3:0x133 / me=umh / subme=9 / psy=1 / psy_rd=1.00:0.15 / mixed_ref=1 / me_range=24 / chroma_me=1 / trellis=2 / 8x8dct=1 / cqm=0 / deadzone=21,11 / fast_pskip=0 / chroma_qp_offset=-3 / threads=12 / lookahead_threads=1 / sliced_threads=0 / nr=200 / decimate=1 / interlaced=0 / bluray_compat=0 / constrained_intra=0 / bframes=3 / b_pyramid=2 / b_adapt=2 / b_bias=0 / direct=3 / weightb=1 / open_gop=0 / weightp=2 / keyint=250 / keyint_min=23 / scenecut=40 / intra_refresh=0 / rc_lookahead=60 / rc=2pass / mbtree=1 / bitrate=3000 / ratetol=1.0 / qcomp=0.60 / qpmin=0 / qpmax=69 / qpstep=4 / cplxblur=20.0 / qblur=0.5 / ip_ratio=1.40 / aq=1:1.00
Language                       : English
Default                        : Yes
Forced                         : No

Audio
ID                             : 2
Format                         : AAC
Format/Info                    : Advanced Audio Codec
Format profile                 : LC
Codec ID                       : A_AAC
Duration                       : 1 h 46 min
Bit rate                       : 321 kb/s
Channel(s)                     : 6 channels
Channel positions              : Front: L C R, Side: L R, LFE
Sampling rate                  : 48.0 kHz
Frame rate                     : 46.875 FPS (1024 spf)
Compression mode               : Lossy
Delay relative to video        : 9 ms
Stream size                    : 244 MiB (10%)
Language                       : Japanese
Default                        : Yes
Forced                         : No

Text #1
ID                             : 3
Format                         : UTF-8
Codec ID                       : S_TEXT/UTF8
Codec ID/Info                  : UTF-8 Plain Text
Duration                       : 1 h 45 min
Bit rate                       : 47 b/s
Count of elements              : 1154
Stream size                    : 36.4 KiB (0%)
Language                       : English
Default                        : Yes
Forced                         : No
Dostępne napisy
Brak napisów
Szczegóły torrenta
Tracker http://bigfoot1942.sektori.org:6969/announce
Multitracker [ Pokaż ]
Kategoria: » » » [Zgłoś błąd]
Dodane 12-10-2017
Podziękowali:
0 użytkowników 
Podziękuj!
Pokaż / Ukryj pliki:
Nazwa pliku Rozmiar
www.HDSector.com - Kimi.No.Na.Wa.2016.JAPANESE.BluRay.1080p.x264.AAC.5.1.-.Hon3y.mkv 2.50 GB
www.HDSector.com.txt 0.04 KB
2 plików
Brak komentarzy...