Enable / Włącz Javascript
 Widok 
 Kategorie 
 Nitro Torrent w sieci 
 Top 10 użytkowników 
 Lego DC Comics Super Heroes The Flash *2018* [720p.BluRay.x264.DTS-MT] [ENG]

Lego DC Comics Super Heroes The Flash *2018* [720p.BluRay.x264.DTS-MT] [ENG]
Kategoria: » » »
Dodane: 07/03/2018
Rozmiar: 3.05 GB
Uploader: feldfebel1 (14)
seed(ów): 18
leecher(ów): 23
Pobrane: 68
Komentarzy: 0
Pobierz Torrent Pobierz Torrent
Pobierz [Magnet] Pobierz [Magnet]

Obserwuj
Raportuj
Info

Tytuł: Lego DC Comics Super Heroes: The Flash  
Produkcja: USA
Gatunek: Animacja
Czas trwania: 78 min.
Premiera: 13.02.2018 - Świat
Reżyseria: Ethan Spaulding
Scenariusz: James Krieg, Jeremy Adams, Bill Finger


Opis

Flash manipuluje speed force, w efekcie czego znajduje się w pętli czasowej, która zmusza go do przeżywania w kółko tego samego dnia ? z tym że z coraz gorszymi skutkami, włączając w to utratę mocy, a nawet wyrzucenie z Ligi Sprawiedliwości.


Obsada

James Arnold Taylor,
Kate Micucci,
Kevin Michael Richardson,
Troy Baker


Dane Techniczne

Video
ID : 1
Format : AVC
Format/Info : Advanced Video Codec
Format profile : High@L4.1
Format settings : CABAC / 9 Ref Frames
Format settings, CABAC : Yes
Format settings, ReFrames : 9 frames
Codec ID : V_MPEG4/ISO/AVC
Duration : 1 h 18 min
Bit rate : 4 060 kb/s
Width : 1 280 pixels
Height : 720 pixels
Display aspect ratio : 16:9
Frame rate mode : Constant
Frame rate : 23.976 (24000/1001) FPS
Color space : YUV
Chroma subsampling : 4:2:0
Bit depth : 8 bits
Scan type : Progressive
Bits/(Pixel*Frame) : 0.184
Stream size : 2.22 GiB (73%)
Title : Lego.DC.Comics.Super.Heroes.The.Flash.2018.720p.BluRay.x264.DTS-MT
Default : Yes
Forced : No

Audio
ID : 2
Format : DTS
Format/Info : Digital Theater Systems
Codec ID : A_DTS
Duration : 1 h 18 min
Bit rate mode : Constant
Bit rate : 1 509 kb/s
Channel(s) : 6 channels
Channel positions : Front: L C R, Side: L R, LFE
Sampling rate : 48.0 kHz
Frame rate : 93.750 FPS (512 SPF)
Bit depth : 24 bits
Compression mode : Lossy
Stream size : 847 MiB (27%)
Title : Lego.DC.Comics.Super.Heroes.The.Flash.2018.720p.BluRay.x264.DTS-MT
Language : English
Default : Yes
Forced : No

Text
ID : 3
Format : UTF-8
Codec ID : S_TEXT/UTF8
Codec ID/Info : UTF-8 Plain Text
Duration : 1 h 14 min
Bit rate : 76 b/s
Count of elements : 1377
Stream size : 41.7 KiB (0%)
Language : English
Default : Yes
Forced : No
Dostępne napisy
Brak napisów
Szczegóły torrenta
Tracker http://tracker.trackerfix.com:80/announce
Multitracker [ Pokaż ]
Kategoria: » » » [Zgłoś błąd]
Dodane 07-03-2018
Podziękowali:
0 użytkowników 
Podziękuj!
Pokaż / Ukryj pliki:
Nazwa pliku Rozmiar
English.srt 95.67 KB
Lego.DC.Comics.Super.Heroes.The.Flash.2018.720p.BluRay.x264.DTS-MT.mkv 3.05 GB
RARBG.txt 0.03 KB
3 plików
Brak komentarzy...