Enable / Włącz Javascript
 Widok 
 Kategorie 
 Nitro Torrent w sieci 
 Top 10 użytkowników 
 My Little Pony The Movie *2017* [1080p.WEBRip.DD5.1.x264-SHITBOX] [ENG]

My Little Pony The Movie *2017* [1080p.WEBRip.DD5.1.x264-SHITBOX] [ENG]
Kategoria: » » »
Dodane: 12/10/2017
Rozmiar: 3.17 GB
Uploader: feldfebel1 (14)
seed(ów): 457
leecher(ów): 107
Pobrane: 35
Komentarzy: 0
Pobierz Torrent Pobierz Torrent
Pobierz [Magnet] Pobierz [Magnet]

Obserwuj
Raportuj
Info

Produkcja: Kanada, USA
Gatunek: Animacja, Komedia, Przygodowy
Premiera: 6 października 2017 (Polska), 5 października 2017 (świat)
Reżyseria: Jayson Thiessen
Scenariusz: Meghan McCarthy, Rita Hsiao, Michael Vogel


Opis

Stadko dzielnych kucyków staje oko w oko ze swoim największym wrogiem. Złowrogi Król Burzy postanawia wykraść całą magię z ich rodzinnego królestwa Equestrii. By ją odzyskać, dzielni bohaterowie wyruszą w pełną przygód podróż, podczas której zyskają nowych przyjaciół jak morskie kucyki czy dobroduszni piraci, przeżyją wiele emocjonujących i zabawnych perypetii i po raz kolejny udowodnią, że przyjaźń to magia!


Obsada

? Emily Blunt .... Tempest Shadow / Fizzlepop Berrytwist
? Kristin Chenoweth .... Księżniczka Skystar
? Liev Schreiber .... The Storm King
? Michael Pe?a .... Grubber
? Sia .... Songbird Serenade
? Taye Diggs .... Capper
? Uzo Aduba .... Królowa Novo
? Zoe Saldana .... Kapitan Celaeno


Dane Techniczne

Video
ID : 1
Format : AVC
Format/Info : Advanced Video Codec
Format profile : High@L4.1
Format settings, CABAC : Yes
Format settings, ReFrames : 4 frames
Codec ID : V_MPEG4/ISO/AVC
Duration : 1 h 38 min
Bit rate : 4 128 kb/s
Width : 1 920 pixels
Height : 804 pixels
Display aspect ratio : 2.40:1
Frame rate mode : Constant
Frame rate : 24.000 FPS
Color space : YUV
Chroma subsampling : 4:2:0
Bit depth : 8 bits
Scan type : Progressive
Bits/(Pixel*Frame) : 0.111
Stream size : 2.84 GiB (90%)
Title : My.Little.Pony.The.Movie.2017.1080p.WEBRip.DD5.1.x264-SHITBOX
Language : English
Default : Yes
Forced : No

Audio
ID : 2
Format : AC-3
Format/Info : Audio Coding 3
Format settings, Endianness : Big
Codec ID : A_AC3
Duration : 1 h 38 min
Bit rate mode : Constant
Bit rate : 384 kb/s
Channel(s) : 6 channels
Channel positions : Front: L C R, Side: L R, LFE
Sampling rate : 48.0 kHz
Frame rate : 31.250 FPS (1536 spf)
Bit depth : 16 bits
Compression mode : Lossy
Delay relative to video : 22 ms
Stream size : 271 MiB (8%)
Title : My.Little.Pony.The.Movie.2017.1080p.WEBRip.DD5.1.x264-SHITBOX
Language : English
Service kind : Complete Main
Default : Yes
Forced : No


Screenshot / Wideo

Dostępne napisy
Brak napisów
Szczegóły torrenta
Tracker http://tracker.trackerfix.com:80/announce
Multitracker [ Pokaż ]
Kategoria: » » » [Zgłoś błąd]
Dodane 12-10-2017
Podziękowali:
0 użytkowników 
Podziękuj!
Pokaż / Ukryj pliki:
Nazwa pliku Rozmiar
My.Little.Pony.The.Movie.2017.1080p.WEBRip.DD5.1.x264-SHITBOX.mkv 3.17 GB
RARBG.txt 0.03 KB
2 plików
Brak komentarzy...