Enable / Włącz Javascript
 Widok 
 Kategorie 
 Nitro Torrent w sieci 
 Top 10 użytkowników 
 Ucho Prezesa S04E09-11 (ODC. 53-55) [1080p.WEB-DL.H.264.AC3] [PL]

Ucho Prezesa S04E09-11 (ODC. 53-55) [1080p.WEB-DL.H.264.AC3] [PL]
Kategoria: » » » »
Dodane: 25/01/2019
Rozmiar: 2.30 GB
Uploader: Lukarusi (1)
seed(ów): 149
leecher(ów): 98
Pobrane: 429
Komentarzy: 0
Pobierz Torrent Pobierz Torrent
Pobierz [Magnet] Pobierz [Magnet]

Obserwuj
Raportuj
Info

produkcja: PL
gatunek: Komedia
twórca: Robert Górski
reżyseria: Tadeusz Śliwa
czas trwania: ok. 12-14 min.

Opis

Satyryczny serial o polskiej polityce rozgrywa się w wyobrażonym gabinecie prezesa, gdzie pani Basia i Mariusz troszczą się o prezesa, jak tylko potrafią. W każdym odcinku gabinet odwiedzają goście, którzy chcieliby szepnąć coś prezesowi na ucho.

Obsada

Robert Górski - Prezes Jarosław
Mikołaj Cieślak - Mariusz
Izabela Dąbrowska - pani Basia
Michał Czernecki - prezes telewizji Jacek
Robert Majewski - prezes Rady Mediów Narodowych
Paweł Koślik - prezydent
Wojciech Kalarus - Antoni, minister wojny
Grzegorz Ciągardlak - Misio
Sebastian Stankiewicz - pan Tomek, syn pani Basi
Sebastian Konrad - wicepremier, minister rozwoju
Katarzyna Żak - Jola pielęgniarka
Agnieszka Wosińska - rzecznik Beata
Adam Krawczuk - Adam od PR-u
Magdalena Smalara - Ania, minister edukacji

Dane Techniczne

Format : Matroska
Format version : Version 4 / Version 2
File size : 825 MiB
Duration : 13 min 51 s
Overall bit rate mode : Variable
Overall bit rate : 8 323 kb/s
Encoded date : UTC 2019-01-25 07:18:40

Video
ID : 1
Format : AVC
Format/Info : Advanced Video Codec
Format profile : High@L4
Format settings : CABAC / 4 Ref Frames
Format settings, CABAC : Yes
Format settings, ReFrames : 4 frames
Codec ID : V_MPEG4/ISO/AVC
Duration : 13 min 51 s
Bit rate mode : Variable
Bit rate : 7 937 kb/s
Maximum bit rate : 12.0 Mb/s
Width : 1 920 pixels
Height : 800 pixels
Display aspect ratio : 2.40:1
Frame rate mode : Constant
Frame rate : 29.970 (29970/1000) FPS
Original frame rate : 29.970 (30000/1001) FPS
Color space : YUV
Chroma subsampling : 4:2:0
Bit depth : 8 bits
Scan type : Progressive
Bits/(Pixel*Frame) : 0.172
Stream size : 786 MiB (95%)
Default : Yes
Forced : Yes
Color range : Limited
Color primaries : BT.709
Transfer characteristics : BT.709
Matrix coefficients : BT.709

Audio
ID : 2
Format : AC-3
Format/Info : Audio Coding 3
Commercial name : Dolby Digital
Codec ID : A_AC3
Duration : 13 min 51 s
Bit rate mode : Constant
Bit rate : 384 kb/s
Channel(s) : 2 channels
Channel layout : L R
Sampling rate : 48.0 kHz
Frame rate : 31.250 FPS (1536 SPF)
Bit depth : 16 bits
Compression mode : Lossy
Stream size : 38.0 MiB (5%)
Language : Polish
Service kind : Complete Main
Default : Yes
Forced : Yes
Dostępne napisy
Brak napisów
Szczegóły torrenta
Tracker http://tracker.city9x.com:2710/announce
Multitracker [ Pokaż ]
Kategoria: » » » » [Zgłoś błąd]
Dodane 25-01-2019
Podziękowali:
2 użytkowników 
[ Pokaż ]
Podziękuj!
Pokaż / Ukryj pliki:
Nazwa pliku Rozmiar
Ucho Prezesa S04E09 (ODC. 53) - Szklany sufit [1080p.WEB-DL.H.264.AC3] [PL].mkv 745.91 MB
Ucho Prezesa S04E10 (ODC. 54) - W mieście niechęci [1080p.WEB-DL.H.264.AC3] [PL].mkv 782.75 MB
Ucho Prezesa S04E11 (ODC. 55) - Populacja czarnej owcy [1080p.WEB-DL.H.264.AC3] [PL].mkv 824.72 MB
3 plików
Brak komentarzy...