Enable / Włącz Javascript
 Widok 
 Kategorie 
 Nitro Torrent w sieci 
 Top 10 użytkowników 
 Wyspa psów - Isle of Dogs *2018* [1080p.WEBRip.x264.AAC2.0-SHITBOX] [ENG]

Wyspa psów - Isle of Dogs *2018* [1080p.WEBRip.x264.AAC2.0-SHITBOX] [ENG]
Kategoria: » » »
Dodane: 20/06/2018
Rozmiar: 3.56 GB
Uploader: feldfebel1 (14)
seed(ów): 3627
leecher(ów): 1851
Pobrane: 113
Komentarzy: 10
Pobierz Torrent Pobierz Torrent
Pobierz [Magnet] Pobierz [Magnet]

Obserwuj
Raportuj
Info

Produkcja: Niemcy, USA
Gatunek: Animacja, Komedia, Przygodowy
Premiera: 20 kwietnia 2018 (Polska), 15 lutego 2018 (świat)
Reżyseria: Wes Anderson
Scenariusz: Wes Anderson


Opis

Opowieść o dwunastoletnim japońskim chłopcu imieniem Atari, którego wychowuje skorumpowany burmistrz wielkiego miasta Megasaki. Gdy na mocy specjalnego dekretu wszystkie psy domowe wygnane zostają na ogromne wysypisko odpadów, Atari leci na miniaturowej machinie powietrznej na ?wyspę śmieci?, by odnaleźć swego ukochanego psa. Na miejscu gromadzi wokół siebie grupę czworonożnych przyjaciół i wraz z nimi wyrusza na wielką wyprawę, która zadecyduje o losach i przyszłości całej Prefektury.


Obsada

? Bryan Cranston .... Chief
? Koyu Rankin .... Atari
? Edward Norton .... Rex
? Bob Balaban .... King
? Bill Murray .... Boss
? Jeff Goldblum .... Duke
? Kunichi Nomura .... Burmistrz Kobayashi
? Akira Takayama .... Majordomus


Dane Techniczne

Video
ID : 1
Format : AVC
Format/Info : Advanced Video Codec
Format profile : High@L4.1
Format settings : CABAC / 4 Ref Frames
Format settings, CABAC : Yes
Format settings, ReFrames : 4 frames
Codec ID : avc1
Codec ID/Info : Advanced Video Coding
Duration : 1 h 37 min
Bit rate : 5 000 kb/s
Width : 1 920 pixels
Height : 800 pixels
Display aspect ratio : 2.40:1
Frame rate mode : Constant
Frame rate : 23.945 FPS
Color space : YUV
Chroma subsampling : 4:2:0
Bit depth : 8 bits
Scan type : Progressive
Bits/(Pixel*Frame) : 0.136
Stream size : 3.39 GiB (95%)
Title : Isle.of.Dogs.2018.1080p.WEBRip.x264.AAC2.0-SHITBOX

Audio
ID : 2
Format : AAC
Format/Info : Advanced Audio Codec
Format profile : LC
Codec ID : mp4a-40-2
Duration : 1 h 37 min
Duration_LastFrame : -11 ms
Bit rate mode : Constant
Bit rate : 256 kb/s
Channel(s) : 2 channels
Channel positions : Front: L R
Sampling rate : 48.0 kHz
Frame rate : 46.875 FPS (1024 SPF)
Compression mode : Lossy
Stream size : 178 MiB (5%)
Title : Isle.of.Dogs.2018.1080p.WEBRip.x264.AAC2.0-SHITBOX
Language : English
Default : Yes
Alternate group : 1
Dostępne napisy
Brak napisów
Szczegóły torrenta
Tracker http://tracker.trackerfix.com:80/announce
Multitracker [ Pokaż ]
Kategoria: » » » [Zgłoś błąd]
Dodane 20-06-2018
Podziękowali:
0 użytkowników 
Podziękuj!
Pokaż / Ukryj pliki:
Nazwa pliku Rozmiar
Isle.of.Dogs.2018.1080p.WEBRip.x264.AAC2.0-SHITBOX.mp4 3.56 GB
RARBG.txt 0.03 KB
2 plików

<< Poprz.      Następna >>
1 - 10



Niqs (8)
@żłopuś: a ja mam takie pytanie nurtujące: sie pobiera, czy sssaaa?. proszę o konkretna odp
21/06/2018 07:26:03 # 0 0


MichalZGD (8)
ebo4 napisał:
@MichalZGD: nie grzebałem jeszcze,pobrałem i seeduję bez problemu.a co mam naprawić.ostatnie 3rzy nie pobiera.


A to wtedy nie mój problem
20/06/2018 22:21:03 # 0 0


go4linx.net❱ Wędrowiec
@MichalZGD: nie grzebałem jeszcze,pobrałem i seeduję bez problemu.a co mam naprawić.ostatnie 3rzy nie pobiera.
20/06/2018 22:18:02 # 0 0


MichalZGD (8)
ebo4 napisał:
@żłopuś: aż boję się napisać,ale dalej brak pobierania


Grzebałeś w programie i masz za swoje
20/06/2018 21:21:06 # 0 0
Komentarz napisany przez użytkownika MichalZGD (8) został skasowany.


Wilu75 (12)
@żłopuś:  Czopek Wujcio Dobra Rada  
20/06/2018 20:53:07 # 0 0


żłopuś (10)
to sobie napraw program

http://s33.postimg.cc/nwfnncf5r/tor.jpg
20/06/2018 19:51:16 # 0 0


go4linx.net❱ Wędrowiec
@żłopuś: aż boję się napisać,ale dalej brak pobierania
20/06/2018 19:42:50 # 0 0


żłopuś (10)
jak widzę mamy tu do czynienia z laikiem w temacie
uploaderzy wrzucają dany torrent na kilka stron a jeśli to alien to jest on rozpowszechniany w wielu wstawkach i stronach
dane "pobrane" są tylko z naszej strony , a dane z całości pliku torrent
rozumiesz ?
20/06/2018 18:32:28 # 0 0


go4linx.net❱ Wędrowiec
seed(ów): 3361
leecher(ów): 1682
Pobrane: 1................a gdzie seed 3361 ,chyba na marsie haha
20/06/2018 10:08:57 # 0 0

1 - 10
<< Poprz.      Następna >>